<?xml version="1.0" standalone="no"?>
<!DOCTYPE svg PUBLIC "-//W3C//DTD SVG 1.1//EN" "http://www.w3.org/Graphics/SVG/1.1/DTD/svg11.dtd" >
<svg xmlns="http://www.w3.org/2000/svg" xmlns:xlink="http://www.w3.org/1999/xlink" version="1.1">
<metadata>
Created by FontForge 20201107 at Tue Jan 23 06:58:22 2024
 By 
Copyright (c) 2019, Andika Fez | Contact: andikafez@gmail.com
</metadata>
<defs>
<font id="ROCKETWILDNESS" horiz-adv-x="739" >
  <font-face 
    font-family="ROCKETWILDNESS"
    font-weight="400"
    font-stretch="normal"
    units-per-em="1000"
    panose-1="2 0 5 3 0 0 0 0 0 0"
    ascent="800"
    descent="-200"
    x-height="619"
    cap-height="619"
    bbox="-10 -260 2477 952"
    underline-thickness="50"
    underline-position="-150"
    unicode-range="U+0020-E01A"
  />
<missing-glyph horiz-adv-x="364" 
d="M33 0v666h265v-666h-265zM66 33h199v600h-199v-600z" />
    <glyph glyph-name=".notdef" horiz-adv-x="364" 
d="M33 0v666h265v-666h-265zM66 33h199v600h-199v-600z" />
    <glyph glyph-name=".null" horiz-adv-x="0" 
 />
    <glyph glyph-name="nonmarkingreturn" horiz-adv-x="333" 
 />
    <glyph glyph-name="space" unicode=" " horiz-adv-x="700" 
 />
    <glyph glyph-name="exclam" unicode="!" horiz-adv-x="47" 
d="M16 -12q0 -7 7 -7t7 7v634q0 7 -7 7t-7 -7v-634zM48 -115q0 -10 -7.5 -16.5t-17.5 -6.5t-16.5 6.5t-6.5 16.5t6.5 17t16.5 7t17.5 -7t7.5 -17z" />
    <glyph glyph-name="quotedbl" unicode="&#x22;" horiz-adv-x="274" 
d="M141 662q6 0 6 -7q0 -2 -1 -4l-134 -223q-2 -3 -5 -3q-7 0 -7 7q0 2 1 3l134 223q2 4 6 4zM268 662q6 0 6 -7q0 -2 -1 -4l-134 -223q-2 -3 -5 -3q-7 0 -7 7q0 2 1 3l134 223q2 4 6 4z" />
    <glyph glyph-name="numbersign" unicode="#" horiz-adv-x="962" 
d="M370 619q7 0 7 -7v-1l-25 -170h344l24 172q1 6 7 6q7 0 7 -7l-1 -1l-24 -170h107q7 0 7 -7t-7 -7h-109l-36 -254h100h1q6 0 6 -7t-6 -7h-1h-102l-25 -172q0 -6 -6 -6q-7 0 -7 6v2l24 170h-343l-25 -172q0 -6 -6 -6q-7 0 -7 7v1l24 170h-151q-7 0 -7 7t7 7h153l37 254
h-146q-6 0 -6 7t6 7h148l24 172q1 6 7 6zM350 427l-36 -254h343l37 254h-344z" />
    <glyph glyph-name="dollar" unicode="$" horiz-adv-x="842" 
d="M436 708q7 0 7 -6v-83q80 -1 143 -23.5t101 -59.5q2 -2 2 -5q0 -6 -7 -6q-2 0 -4 2q-36 35 -96.5 56.5t-138.5 22.5v-303q122 -23 172 -45q41 -17 63 -41q25 -27 25 -63q0 -78 -87 -127q-73 -42 -173 -46v-82v-1q0 -6 -7 -6t-7 6v1v82h-1q-171 0 -285 85q-3 2 -3 5
q0 7 7 7q2 0 4 -1q111 -83 277 -83h1v298h-1h-1q-134 26 -185 48q-42 18 -63 42q-25 27 -25 64q0 32 19.5 62.5t54.5 55.5q79 53 201 55v83q0 6 7 6zM429 606q-118 -2 -193 -53q-33 -23 -51 -51t-18 -56q0 -31 22 -55q19 -22 58 -39q50 -21 182 -46v300zM443 289v-294
q96 3 166 43q80 46 80 116q0 31 -21 54q-19 22 -58 38q-49 21 -167 43z" />
    <glyph glyph-name="percent" unicode="%" horiz-adv-x="679" 
d="M494 664q7 0 7 -7q0 -1 -1 -3l-312 -714q-2 -4 -7 -4q-6 0 -6 7v3l313 714q1 4 6 4zM226 664q38 0 64 -26t26 -62.5t-26 -62.5t-64 -26q-37 0 -61.5 26t-24.5 62.5t24.5 62.5t61.5 26zM226 650q-32 0 -52.5 -21.5t-20.5 -53t20.5 -53t52.5 -21.5t54.5 21.5t22.5 53
t-22.5 53t-54.5 21.5zM449 113q38 0 64 -26t26 -62.5t-26 -62.5t-64 -26q-37 0 -61.5 26t-24.5 62.5t24.5 62.5t61.5 26zM449 99q-32 0 -52.5 -21.5t-20.5 -53t20.5 -53t52.5 -21.5t54.5 21.5t22.5 53t-22.5 53t-54.5 21.5z" />
    <glyph glyph-name="ampersand" unicode="&#x26;" horiz-adv-x="793" 
d="M201 619h401q7 0 7 -6.5t-7 -6.5h-388l370 -519q4 5 7 10q49 77 49 203q0 7 6.5 7t6.5 -7q0 -129 -51 -210q-4 -6 -10 -14l60 -84q1 -2 1 -4q0 -7 -6 -7q-4 0 -6 3l-58 81q-70 -84 -204 -84q-103 0 -171 71t-68 174q0 81 44.5 145t117.5 88l-107 149q-1 2 -1 4q0 7 7 7z
M310 447q-71 -21 -114 -82t-43 -139q0 -98 64 -165t162 -67q130 0 196 82z" />
    <glyph glyph-name="quotesingle" unicode="'" horiz-adv-x="147" 
d="M141 662q6 0 6 -7q0 -2 -1 -4l-134 -223q-2 -3 -5 -3q-7 0 -7 7q0 2 1 3l134 223q2 4 6 4z" />
    <glyph glyph-name="parenleft" unicode="(" horiz-adv-x="147" 
d="M141 708q-2 0 -4 -1q-4 -3 -11 -8.5t-25 -27.5t-33 -50q-68 -124 -68 -321t68 -321q15 -28 32 -49.5t27 -28.5l10 -8q2 -1 4 -1q6 0 6 6q0 4 -3 6q-32 21 -65 81q-66 121 -66 314.5t66 315.5q15 26 31 46.5t25 27.5l9 7q3 2 3 6q0 6 -6 6z" />
    <glyph glyph-name="parenright" unicode=")" horiz-adv-x="147" 
d="M7 708q2 0 3 -1q4 -3 11 -8.5t25 -27.5t34 -50q67 -124 67 -321t-67 -321q-16 -28 -33 -49.5t-27 -28.5l-10 -8q-1 -1 -3 -1q-7 0 -7 6q0 4 3 6q32 21 65 81q66 121 66 314.5t-66 315.5q-15 26 -31 46.5t-25 27.5l-9 7q-3 2 -3 6q0 6 7 6z" />
    <glyph glyph-name="asterisk" unicode="*" horiz-adv-x="251" 
d="M125.5 786.5q6.5 0.5 6.5 -6.5v-126l109 82q2 1 4 1q6 0 6 -7q0 -3 -2 -5l-112 -84l112 -84q2 -2 2 -5q0 -7 -6 -7q-3 0 -4 1l-109 82v-126q0 -7 -6.5 -7t-6.5 7v126l-108 -82q-2 -1 -4 -1q-7 0 -7 7q0 3 3 5l112 84l-112 84q-3 2 -3 5q0 7 6 7h1q2 0 4 -1l108 -82v126
q0 6 6.5 6.5z" />
    <glyph glyph-name="plus" unicode="+" horiz-adv-x="415" 
d="M214 307h194h1q6 0 6 -7t-6 -7h-1h-194v-194q0 -7 -6.5 -7t-6.5 7v194h-194q-7 0 -7 7t7 7h194v194q0 7 6.5 7t6.5 -7v-194z" />
    <glyph glyph-name="comma" unicode="," horiz-adv-x="147" 
d="M141 78q6 0 6 -6q0 -2 -1 -4l-134 -223q-2 -3 -5 -3q-7 0 -7 6q0 2 1 4l134 223q2 3 6 3z" />
    <glyph glyph-name="hyphen" unicode="-" horiz-adv-x="415" 
d="M7 307h401h1q6 0 6 -7t-6 -7h-1h-401q-7 0 -7 7t7 7z" />
    <glyph glyph-name="period" unicode="." horiz-adv-x="47" 
d="M48 5.5q0 -9.5 -7.5 -16.5t-17.5 -7t-16.5 7t-6.5 16.5t6.5 16.5t16.5 7t17.5 -7t7.5 -16.5z" />
    <glyph glyph-name="slash" unicode="/" horiz-adv-x="325" 
d="M319 664q7 0 7 -7q0 -1 -1 -3l-312 -714q-2 -4 -6 -4q-7 0 -7 7q0 1 1 3l312 714q2 4 6 4z" />
    <glyph glyph-name="zero" unicode="0" horiz-adv-x="510" 
d="M258 619q79 0 128 -76q54 -84 54 -243t-54 -243q-49 -76 -128 -76q-80 0 -131 75q-57 85 -57 244t57 244q51 75 131 75zM258 606q-73 0 -120 -70q-55 -82 -55 -236t55 -236q47 -70 120 -70q72 0 117 70q52 81 52 236t-52 236q-45 70 -117 70z" />
    <glyph glyph-name="one" unicode="1" horiz-adv-x="287" 
d="M77 619h134q6 0 6 -7v-624q0 -7 -6.5 -7t-6.5 7v618h-127q-7 0 -7 6.5t7 6.5z" />
    <glyph glyph-name="two" unicode="2" horiz-adv-x="554" 
d="M278 619q112 0 158 -66q27 -40 27 -101q0 -76 -52 -151t-139 -154v0q-36 -33 -97 -84t-80 -69h382h1q6 0 6 -6.5t-6 -6.5h-1h-400q-7 0 -7 7q0 2 2 4q21 21 88 77t103 88q187 169 187 295q0 57 -25 94q-42 60 -147 60v0q-89 0 -160 -64q-2 -2 -5 -2q-6 0 -6 7q0 3 2 5
q75 68 169 67z" />
    <glyph glyph-name="three" unicode="3" horiz-adv-x="527" 
d="M228 619q93 0 145 -28q72 -39 72 -131q0 -48 -28 -81q-24 -28 -67 -44q-29 -10 -67 -15q48 -9 83 -25q91 -44 91 -139t-77 -140q-60 -35 -152 -35q-78 0 -152 46l-6 3l7 12l6 -4q70 -44 145 -44q88 0 145 34q71 41 71 128t-84 127q-66 31 -177 31h-7v13h7q106 0 162 21
q41 14 62 40q24 28 24 72q0 84 -64 119q-50 27 -139 27q-69 0 -145 -44l-6 -3l-7 11l6 3q79 46 152 46z" />
    <glyph glyph-name="four" unicode="4" horiz-adv-x="510" 
d="M121 619q7 0 7 -7v-1l-44 -304h343v305q0 7 7 7q6 0 6 -7v-311v-1v-2v-310q0 -7 -6.5 -7t-6.5 7v305h-350q-7 0 -7 7v1l45 312q0 6 6 6z" />
    <glyph glyph-name="five" unicode="5" horiz-adv-x="548" 
d="M157 619h271q6 0 6 -6.5t-6 -6.5h-266l-40 -279q2 1 12.5 6.5t14 7t14 6.5t15.5 7t16 6t19 5.5t19.5 4.5t22 4t23.5 2t26 1q80 0 128 -55q47 -53 47 -137q0 -36 -14 -71.5t-39.5 -65.5t-67 -48.5t-90.5 -18.5q-111 0 -196 93q-2 1 -2 4q0 7 7 7q3 0 5 -2q81 -89 186 -89
q61 0 108 30.5t68 73t21 87.5q0 79 -43 128q-44 50 -118 50q-27 0 -50.5 -3t-45 -10t-33 -11.5t-33 -15.5t-26.5 -13q-1 -1 -3 -1q-7 0 -7 7v1l44 296q1 6 7 6z" />
    <glyph glyph-name="six" unicode="6" horiz-adv-x="520" 
d="M381 619q6 0 6 -7q0 -5 -5 -6q-151 -42 -235 -192q-28 -49 -45 -110q62 54 163 54q79 0 132 -55.5t53 -136.5q0 -73 -53 -129t-133 -56q-102 0 -154 75q-40 58 -40 137q0 46 16 107.5t49 120.5q87 155 244 198h2zM265 344q-111 0 -169 -62q-13 -52 -13 -89q0 -75 38 -130
q48 -69 143 -69q75 0 124 52.5t49 119.5q0 76 -49 127t-123 51z" />
    <glyph glyph-name="seven" unicode="7" horiz-adv-x="510" 
d="M77 619h357q6 0 6 -7v-2l-268 -625q-1 -4 -6 -4q-7 0 -7 7q0 1 1 2l264 616h-347q-7 0 -7 6.5t7 6.5z" />
    <glyph glyph-name="eight" unicode="8" horiz-adv-x="575" 
d="M288 619q82 0 137 -37q64 -42 64 -119q0 -76 -64 -113q-28 -15 -65 -22q42 -9 72 -27q74 -45 74 -139q0 -95 -74 -143q-58 -38 -144 -38t-144 38q-74 48 -74 143q0 94 74 139q30 18 72 27q-38 7 -65 22q-65 37 -65 113q0 77 64 119q56 37 138 37zM288 606q-78 0 -130 -35
q-59 -38 -59 -108q0 -68 58 -101q48 -27 129 -27h1h1h1h1q80 0 128 27q58 33 58 101q0 70 -58 108q-52 35 -130 35zM282 322q-81 -2 -131 -32q-68 -41 -68 -128q0 -88 68 -132q55 -36 137 -36t137 36q68 44 68 132q0 87 -68 128q-50 30 -131 32q-1 0 -3 -0.5t-3 -0.5t-3 0.5
t-3 0.5z" />
    <glyph glyph-name="nine" unicode="9" horiz-adv-x="520" 
d="M256 619q102 0 154 -75q40 -58 40 -137q0 -46 -16 -107.5t-49 -120.5q-87 -155 -244 -198h-2q-6 0 -6 7q0 5 5 6q151 42 235 192q28 49 45 110q-62 -54 -163 -54q-79 0 -132 55.5t-53 136.5q0 73 53 129t133 56zM256 606q-75 0 -124 -52.5t-49 -119.5q0 -76 49 -127
t123 -51q111 0 169 62q13 52 13 89q0 75 -38 130q-48 69 -143 69z" />
    <glyph glyph-name="colon" unicode=":" horiz-adv-x="47" 
d="M48 383q0 -10 -7.5 -16.5t-17.5 -6.5t-16.5 6.5t-6.5 16.5t6.5 17t16.5 7t17.5 -7t7.5 -17zM48 215q0 -10 -7.5 -17t-17.5 -7t-16.5 7t-6.5 17t6.5 16.5t16.5 6.5t17.5 -6.5t7.5 -16.5z" />
    <glyph glyph-name="semicolon" unicode=";" horiz-adv-x="148" 
d="M141 237q6 0 6 -7q0 -2 -1 -4l-134 -223q-2 -3 -5 -3q-7 0 -7 7q0 2 1 3l134 223q2 4 6 4zM149 383q0 -10 -7.5 -16.5t-17.5 -6.5t-16.5 6.5t-6.5 16.5t6.5 17t16.5 7t17.5 -7t7.5 -17z" />
    <glyph glyph-name="less" unicode="&#x3c;" horiz-adv-x="236" 
d="M230 530q-3 0 -5 -2l-223 -223q-2 -2 -2 -5t2 -5l223 -223q2 -2 5 -2q7 0 7 7q0 3 -3 5l-218 218l218 218q3 2 3 5q0 7 -7 7z" />
    <glyph glyph-name="equal" unicode="=" horiz-adv-x="415" 
d="M7 388h401h1q6 0 6 -6.5t-6 -6.5h-1h-401q-7 0 -7 6.5t7 6.5zM7 224h401h1q6 0 6 -6.5t-6 -6.5h-1h-401q-7 0 -7 6.5t7 6.5z" />
    <glyph glyph-name="greater" unicode="&#x3e;" horiz-adv-x="236" 
d="M7 530q3 0 5 -2l223 -223q2 -2 2 -5t-2 -5l-223 -223q-2 -2 -5 -2q-7 0 -7 7q0 3 2 5l218 218l-218 218q-2 2 -2 5q0 7 7 7z" />
    <glyph glyph-name="question" unicode="?" horiz-adv-x="356" 
d="M104 -115q0 -10 -7 -16.5t-17 -6.5t-17 6.5t-7 16.5t7 17t17 7t17 -7t7 -17zM171 664q112 0 158 -75q28 -45 28 -111q0 -31 -8 -58.5t-26.5 -55t-32.5 -44.5t-43 -48q-6 -7 -9 -10q-29 -31 -47.5 -54t-41 -58t-37.5 -75.5t-23 -87.5q-1 -6 -7 -6q-7 0 -7 7l1 1
q8 48 23.5 90t39 78t42 59.5t47.5 54.5q3 3 9 10q28 31 42 47.5t31.5 42.5t25 52t7.5 55q0 62 -25 104q-42 68 -147 68v0q-88 1 -160 -63q-2 -2 -4 -2q-7 0 -7 7q0 3 2 5q75 67 169 67z" />
    <glyph glyph-name="at" unicode="@" horiz-adv-x="1069" 
d="M525 695q111 0 204 -53t147 -144t54 -198q0 -101 -45 -178q-47 -81 -114 -81q-23 0 -43 17q-17 16 -32 44l-52 122h-218l-52 -122q-2 -4 -7 -4q-6 0 -6 7v2l168 391q1 4 5.5 4t6.5 -4l167 -390q13 -26 29 -40t34 -14q60 0 103 75q42 73 42 171q0 104 -51.5 191.5
t-141.5 139t-198 51.5q-107 0 -192.5 -51.5t-132.5 -138.5t-47 -192t47 -192t132.5 -138.5t192.5 -51.5q81 0 153 30q2 1 3 1q7 0 7 -7q0 -4 -4 -6q-76 -31 -159 -31q-110 0 -198.5 53.5t-137.5 143.5t-49 198t49 198t137.5 143.5t198.5 53.5zM535 478l-104 -241h207z" />
    <glyph glyph-name="A" unicode="A" horiz-adv-x="828" 
d="M414 619q5 0 7 -4l267 -625q1 -1 1 -2q0 -7 -7 -7q-4 0 -6 4l-262 610l-261 -610q-2 -4 -6 -4q-7 0 -7 7q0 1 1 2l267 625q2 4 6 4z" />
    <glyph glyph-name="B" unicode="B" horiz-adv-x="738" 
d="M146 619h209q91 0 144 -25q77 -35 77 -122t-77 -127q-26 -14 -62 -21q47 -7 80 -24q82 -43 82 -144t-82 -144q-56 -31 -148 -31h-223q-6 0 -6 6.5t6 6.5h223q89 0 142 29q75 40 75 133q0 94 -74 133q-53 27 -143 27h-14h-209q-6 0 -6 6.5t6 6.5h209q85 0 138 27
q71 36 71 116q0 78 -70 111q-51 23 -139 23h-209q-6 0 -6 6.5t6 6.5z" />
    <glyph glyph-name="C" unicode="C" horiz-adv-x="828" 
d="M459 619q137 0 228 -91q2 -2 2 -5q0 -7 -7 -7q-3 0 -5 2q-87 88 -218 88t-218.5 -87.5t-87.5 -218.5t87.5 -218.5t218.5 -87.5t218 88q2 2 5 2q7 0 7 -7q0 -3 -2 -5q-91 -91 -228 -91q-136 0 -227.5 91.5t-91.5 227.5t91.5 227.5t227.5 91.5z" />
    <glyph glyph-name="D" unicode="D" 
d="M147 619h89q192 0 284 -91q80 -80 80 -228t-80 -228q-92 -91 -284 -91h-89q-7 0 -7 6.5t7 6.5h89q187 0 274 88q76 76 76 218t-76 218q-87 88 -274 88h-89q-7 0 -7 6.5t7 6.5z" />
    <glyph glyph-name="E" unicode="E" 
d="M147 619h446q7 0 7 -6.5t-7 -6.5h-446q-7 0 -7 6.5t7 6.5zM147 307h401q7 0 7 -7t-7 -7h-401q-7 0 -7 7t7 7zM147 -6h446q7 0 7 -6.5t-7 -6.5h-446q-7 0 -7 6.5t7 6.5z" />
    <glyph glyph-name="F" unicode="F" 
d="M147 619h446q7 0 7 -6.5t-7 -6.5h-446q-7 0 -7 6.5t7 6.5zM147 307h401q7 0 7 -7t-7 -7h-395v-305q0 -7 -6.5 -7t-6.5 7v312q0 7 7 7z" />
    <glyph glyph-name="G" unicode="G" horiz-adv-x="828" 
d="M459 619q137 0 228 -91q2 -2 2 -5q0 -7 -7 -7q-3 0 -5 2q-87 88 -218 88t-218.5 -87.5t-87.5 -218.5t87.5 -218.5t218.5 -87.5q129 0 216 86v213h-305q-7 0 -7 7t7 7h312q7 0 7 -7v-223q0 -3 -2 -5q-91 -91 -228 -91q-136 0 -227.5 91.5t-91.5 227.5t91.5 227.5
t227.5 91.5z" />
    <glyph glyph-name="H" unicode="H" 
d="M147 619q6 0 6 -7v-305h433v305q0 7 7 7t7 -7v-624q0 -7 -7 -7t-7 7v305h-433v-305q0 -7 -6.5 -7t-6.5 7v624q0 7 7 7z" />
    <glyph glyph-name="I" unicode="I" horiz-adv-x="293" 
d="M140 612q0 7 7 7q6 0 6 -7v-624q0 -7 -6.5 -7t-6.5 7v624z" />
    <glyph glyph-name="J" unicode="J" horiz-adv-x="716" 
d="M570 619q6 0 6 -7v-401q0 -123 -80 -184q-61 -46 -149 -46t-149 46q-37 28 -57 71q-1 1 -1 3q0 6 6 6q4 0 6 -4q19 -40 54 -66q58 -43 141 -43t141 43q76 57 76 174v401q0 7 6 7z" />
    <glyph glyph-name="K" unicode="K" horiz-adv-x="755" 
d="M146.5 619q6.5 0 6.5 -7v-603l434 607q2 3 6 3q7 0 7 -7q0 -2 -2 -4l-212 -297l228 -319q1 -2 1 -4q0 -7 -6 -7q-4 0 -6 3l-225 316l-226 -316q-2 -3 -5 -3q-7 0 -7 7v624q0 7 6.5 7z" />
    <glyph glyph-name="L" unicode="L" 
d="M147 619q6 0 6 -7v-618h440q7 0 7 -6.5t-7 -6.5h-446q-7 0 -7 7v624q0 7 7 7z" />
    <glyph glyph-name="M" unicode="M" horiz-adv-x="1162" 
d="M414 619q5 0 7 -4l160 -374l161 374q1 4 5 4h1q4 0 6 -4l268 -625v-2q0 -7 -7 -7q-4 0 -6 4l-261 610l-160 -371l100 -234q1 -1 1 -2q0 -7 -7 -7q-4 0 -6 4l-95 222l-95 -222q-2 -4 -6 -4q-7 0 -7 7q0 1 1 2l100 234l-160 371l-261 -610q-2 -4 -6 -4q-7 0 -7 7q0 1 1 2
l267 625q2 4 6 4z" />
    <glyph glyph-name="N" unicode="N" 
d="M593 619q7 0 7 -7v-624q0 -7 -7 -7q-4 0 -6 3l-434 607v-603q0 -7 -6.5 -7t-6.5 7v624q0 7 7 7q3 0 5 -3l434 -607v603q0 7 7 7z" />
    <glyph glyph-name="O" unicode="O" horiz-adv-x="917" 
d="M451 619q136 0 231.5 -93.5t95.5 -225.5t-95.5 -225.5t-231.5 -93.5q-89 0 -160.5 43t-111 116t-39.5 160t39.5 160t111 116t160.5 43zM451 606q-129 0 -213.5 -88.5t-84.5 -217.5t84.5 -217.5t213.5 -88.5q131 0 222.5 89.5t91.5 216.5t-91.5 216.5t-222.5 89.5z" />
    <glyph glyph-name="P" unicode="P" 
d="M147 619h223q88 0 148 -33q82 -45 82 -140.5t-82 -140.5q-60 -34 -148 -34h-217v-283q0 -7 -6.5 -7t-6.5 7v290q0 6 7 6h223q84 0 142 33q74 41 74 128.5t-74 128.5q-58 32 -142 32h-223q-7 0 -7 6.5t7 6.5z" />
    <glyph glyph-name="Q" unicode="Q" horiz-adv-x="918" 
d="M451 619q136 0 231.5 -93.5t95.5 -225.5q0 -76 -33.5 -142t-92.5 -110l116 -100q2 -2 2 -5q0 -7 -6 -7q-3 0 -5 2l-118 102q-85 -59 -190 -59q-89 0 -160.5 43t-111 116t-39.5 160t39.5 160t111 116t160.5 43zM451 606q-129 0 -213.5 -88.5t-84.5 -217.5t84.5 -217.5
t213.5 -88.5q99 0 179 55l-183 157q-2 2 -2 5q0 7 6 7q3 0 5 -2l185 -159q58 42 91 106t33 137q0 127 -91.5 216.5t-222.5 89.5z" />
    <glyph glyph-name="R" unicode="R" horiz-adv-x="784" 
d="M147 619h223q88 0 148 -33q82 -45 82 -140.5t-82 -140.5q-40 -22 -98 -30l223 -283q1 -2 1 -4q0 -7 -6 -7q-4 0 -6 3l-227 289q-18 -2 -35 -2h-217v-283q0 -7 -6.5 -7t-6.5 7v290q0 6 7 6h223q7 0 25 2l-254 322q-1 2 -1 4q0 7 7 7zM160 606l251 -319q60 7 100 30
q75 41 75 128.5t-74 128.5q-58 32 -142 32h-210z" />
    <glyph glyph-name="S" unicode="S" horiz-adv-x="842" 
d="M436 619q83 0 147.5 -22.5t103.5 -60.5q2 -2 2 -5q0 -6 -6 -6q-3 0 -5 2q-37 35 -99.5 57t-142.5 22q-122 0 -200 -53q-33 -23 -50.5 -51t-17.5 -56q0 -31 21 -55q19 -22 58 -39q50 -21 183 -46q135 -26 185 -48q42 -17 63 -41q25 -27 25 -63q0 -78 -87 -128
q-80 -45 -187 -45q-171 0 -286 85q-3 2 -3 5q0 7 7 7q2 0 4 -1q111 -83 278 -83q104 0 180 44q81 46 81 116q0 31 -22 54q-19 22 -58 38q-49 21 -183 46q-134 26 -185 48q-42 18 -63 42q-25 27 -25 64q0 32 19.5 62.5t54.5 55.5q82 55 208 55z" />
    <glyph glyph-name="T" unicode="T" horiz-adv-x="829" 
d="M147 619h535q5 0 6.5 -3.5t0 -6.5t-6.5 -3h-261v-618q0 -5 -3 -6.5t-6.5 0t-3.5 6.5v618h-261q-4 0 -6 3t0 6.5t6 3.5z" />
    <glyph glyph-name="U" unicode="U" horiz-adv-x="778" 
d="M147 619q6 0 6 -7v-382q0 -98 69 -167t167 -69t167 69t69 167v382q0 7 7 7t7 -7v-382q0 -103 -73 -176t-176.5 -73t-176.5 73t-73 176v382q0 7 7 7z" />
    <glyph glyph-name="V" unicode="V" horiz-adv-x="828" 
d="M414 -19q-4 0 -6 4l-267 625q-1 1 -1 2q0 7 7 7q4 0 6 -4l261 -610l262 610q2 4 6 4q7 0 7 -7q0 -1 -1 -2l-267 -625q-2 -4 -7 -4z" />
    <glyph glyph-name="W" unicode="W" horiz-adv-x="1141" 
d="M682 619q7 0 7 -7q0 -1 -1 -2l-110 -258l149 -347l261 610q2 4 6 4q7 0 7 -7v-2l-268 -625q-2 -4 -6.5 -4t-5.5 4l-150 350l-150 -350q-2 -4 -6.5 -4t-6.5 4l-267 625q-1 1 -1 2q0 7 7 7q4 0 6 -4l261 -610l149 347l-110 258q-1 1 -1 2q0 7 7 7q4 0 6 -4l106 -246
l105 246q2 4 6 4z" />
    <glyph glyph-name="X" unicode="X" horiz-adv-x="784" 
d="M147 619q3 0 5 -3l240 -305l240 305q2 3 5 3h1q6 0 6 -7q0 -2 -1 -4l-242 -308l242 -308q1 -2 1 -4q0 -7 -6 -7q-4 0 -6 3l-240 305l-240 -305q-2 -3 -5 -3q-7 0 -7 7q0 2 1 4l243 308l-243 308q-1 2 -1 4q0 7 7 7z" />
    <glyph glyph-name="Y" unicode="Y" horiz-adv-x="829" 
d="M682 619q7 0 7 -7q0 -2 -1 -4l-267 -340v-280v-1q0 -6 -6.5 -6t-6.5 6v1v280l-266 340q-2 2 -2 4q0 7 7 7q3 0 5 -3l263 -334l262 334q2 3 5 3z" />
    <glyph glyph-name="Z" unicode="Z" 
d="M593 619q7 0 7 -7q0 -2 -2 -4l-438 -614h433q7 0 7 -6.5t-7 -6.5h-446q-7 0 -7 7q0 2 1 4l439 614l-433 -1q-7 0 -7 7t7 7h446z" />
    <glyph glyph-name="bracketleft" unicode="[" horiz-adv-x="147" 
d="M141 708h-134q-7 0 -7 -6v-804q0 -6 7 -6h134q6 0 6 6.5t-6 6.5h-128v790h128q6 0 6 6.5t-6 6.5z" />
    <glyph glyph-name="backslash" unicode="\" horiz-adv-x="325" 
d="M319 -64q7 0 7 7q0 1 -1 3l-312 714q-2 4 -6 4q-7 0 -7 -7q0 -2 1 -3l312 -714q2 -4 6 -4z" />
    <glyph glyph-name="bracketright" unicode="]" horiz-adv-x="147" 
d="M7 708h134q6 0 6 -6v-804q0 -6 -6 -6h-134q-7 0 -7 6.5t7 6.5h127v790h-127q-7 0 -7 6.5t7 6.5z" />
    <glyph glyph-name="asciicircum" unicode="^" horiz-adv-x="370" 
d="M185 923q2 0 3 -1l179 -89q4 -2 4 -6q0 -7 -7 -7q-2 0 -3 1l-176 88l-175 -88q-2 -1 -3 -1q-7 0 -7 7q0 4 4 6l178 89q2 1 3 1z" />
    <glyph glyph-name="underscore" unicode="_" horiz-adv-x="395" 
d="M-3 -6h401h1q6 0 6 -7t-6 -7h-1h-401q-7 0 -7 7t7 7z" />
    <glyph glyph-name="grave" unicode="`" horiz-adv-x="192" 
d="M7 923q-7 0 -7 -7q0 -4 4 -6l178 -89q2 -1 3 -1q7 0 7 7q0 4 -4 6l-178 89q-2 1 -3 1z" />
    <glyph glyph-name="a" unicode="a" horiz-adv-x="828" 
d="M414 619q5 0 7 -4l267 -625q1 -1 1 -2q0 -7 -7 -7q-4 0 -6 4l-262 610l-261 -610q-2 -4 -6 -4q-7 0 -7 7q0 1 1 2l267 625q2 4 6 4z" />
    <glyph glyph-name="b" unicode="b" horiz-adv-x="738" 
d="M146 619h209q91 0 144 -25q77 -35 77 -122t-77 -127q-26 -14 -62 -21q47 -7 80 -24q82 -43 82 -144t-82 -144q-56 -31 -148 -31h-223q-6 0 -6 6.5t6 6.5h223q89 0 142 29q75 40 75 133q0 94 -74 133q-53 27 -143 27h-14h-209q-6 0 -6 6.5t6 6.5h209q85 0 138 27
q71 36 71 116q0 78 -70 111q-51 23 -139 23h-209q-6 0 -6 6.5t6 6.5z" />
    <glyph glyph-name="c" unicode="c" horiz-adv-x="828" 
d="M459 619q137 0 228 -91q2 -2 2 -5q0 -7 -7 -7q-3 0 -5 2q-87 88 -218 88t-218.5 -87.5t-87.5 -218.5t87.5 -218.5t218.5 -87.5t218 88q2 2 5 2q7 0 7 -7q0 -3 -2 -5q-91 -91 -228 -91q-136 0 -227.5 91.5t-91.5 227.5t91.5 227.5t227.5 91.5z" />
    <glyph glyph-name="d" unicode="d" 
d="M147 619h89q192 0 284 -91q80 -80 80 -228t-80 -228q-92 -91 -284 -91h-89q-7 0 -7 6.5t7 6.5h89q187 0 274 88q76 76 76 218t-76 218q-87 88 -274 88h-89q-7 0 -7 6.5t7 6.5z" />
    <glyph glyph-name="e" unicode="e" 
d="M147 619h446q7 0 7 -6.5t-7 -6.5h-446q-7 0 -7 6.5t7 6.5zM147 307h401q7 0 7 -7t-7 -7h-401q-7 0 -7 7t7 7zM147 -6h446q7 0 7 -6.5t-7 -6.5h-446q-7 0 -7 6.5t7 6.5z" />
    <glyph glyph-name="f" unicode="f" 
d="M147 619h446q7 0 7 -6.5t-7 -6.5h-446q-7 0 -7 6.5t7 6.5zM147 307h401q7 0 7 -7t-7 -7h-395v-305q0 -7 -6.5 -7t-6.5 7v312q0 7 7 7z" />
    <glyph glyph-name="g" unicode="g" horiz-adv-x="828" 
d="M459 619q137 0 228 -91q2 -2 2 -5q0 -7 -7 -7q-3 0 -5 2q-87 88 -218 88t-218.5 -87.5t-87.5 -218.5t87.5 -218.5t218.5 -87.5q129 0 216 86v213h-305q-7 0 -7 7t7 7h312q7 0 7 -7v-223q0 -3 -2 -5q-91 -91 -228 -91q-136 0 -227.5 91.5t-91.5 227.5t91.5 227.5
t227.5 91.5z" />
    <glyph glyph-name="h" unicode="h" 
d="M147 619q6 0 6 -7v-305h433v305q0 7 7 7t7 -7v-624q0 -7 -7 -7t-7 7v305h-433v-305q0 -7 -6.5 -7t-6.5 7v624q0 7 7 7z" />
    <glyph glyph-name="i" unicode="i" horiz-adv-x="293" 
d="M140 612q0 7 7 7q6 0 6 -7v-624q0 -7 -6.5 -7t-6.5 7v624z" />
    <glyph glyph-name="j" unicode="j" horiz-adv-x="716" 
d="M570 619q6 0 6 -7v-401q0 -123 -80 -184q-61 -46 -149 -46t-149 46q-37 28 -57 71q-1 1 -1 3q0 6 6 6q4 0 6 -4q19 -40 54 -66q58 -43 141 -43t141 43q76 57 76 174v401q0 7 6 7z" />
    <glyph glyph-name="k" unicode="k" horiz-adv-x="755" 
d="M146.5 619q6.5 0 6.5 -7v-603l434 607q2 3 6 3q7 0 7 -7q0 -2 -2 -4l-212 -297l228 -319q1 -2 1 -4q0 -7 -6 -7q-4 0 -6 3l-225 316l-226 -316q-2 -3 -5 -3q-7 0 -7 7v624q0 7 6.5 7z" />
    <glyph glyph-name="l" unicode="l" 
d="M147 619q6 0 6 -7v-618h440q7 0 7 -6.5t-7 -6.5h-446q-7 0 -7 7v624q0 7 7 7z" />
    <glyph glyph-name="m" unicode="m" horiz-adv-x="1162" 
d="M414 619q5 0 7 -4l160 -374l161 374q1 4 5 4h1q4 0 6 -4l268 -625v-2q0 -7 -7 -7q-4 0 -6 4l-261 610l-160 -371l100 -234q1 -1 1 -2q0 -7 -7 -7q-4 0 -6 4l-95 222l-95 -222q-2 -4 -6 -4q-7 0 -7 7q0 1 1 2l100 234l-160 371l-261 -610q-2 -4 -6 -4q-7 0 -7 7q0 1 1 2
l267 625q2 4 6 4z" />
    <glyph glyph-name="n" unicode="n" 
d="M593 619q7 0 7 -7v-624q0 -7 -7 -7q-4 0 -6 3l-434 607v-603q0 -7 -6.5 -7t-6.5 7v624q0 7 7 7q3 0 5 -3l434 -607v603q0 7 7 7z" />
    <glyph glyph-name="o" unicode="o" horiz-adv-x="917" 
d="M451 619q136 0 231.5 -93.5t95.5 -225.5t-95.5 -225.5t-231.5 -93.5q-89 0 -160.5 43t-111 116t-39.5 160t39.5 160t111 116t160.5 43zM451 606q-129 0 -213.5 -88.5t-84.5 -217.5t84.5 -217.5t213.5 -88.5q131 0 222.5 89.5t91.5 216.5t-91.5 216.5t-222.5 89.5z" />
    <glyph glyph-name="p" unicode="p" 
d="M147 619h223q88 0 148 -33q82 -45 82 -140.5t-82 -140.5q-60 -34 -148 -34h-217v-283q0 -7 -6.5 -7t-6.5 7v290q0 6 7 6h223q84 0 142 33q74 41 74 128.5t-74 128.5q-58 32 -142 32h-223q-7 0 -7 6.5t7 6.5z" />
    <glyph glyph-name="q" unicode="q" horiz-adv-x="918" 
d="M451 619q136 0 231.5 -93.5t95.5 -225.5q0 -76 -33.5 -142t-92.5 -110l116 -100q2 -2 2 -5q0 -7 -6 -7q-3 0 -5 2l-118 102q-85 -59 -190 -59q-89 0 -160.5 43t-111 116t-39.5 160t39.5 160t111 116t160.5 43zM451 606q-129 0 -213.5 -88.5t-84.5 -217.5t84.5 -217.5
t213.5 -88.5q99 0 179 55l-183 157q-2 2 -2 5q0 7 6 7q3 0 5 -2l185 -159q58 42 91 106t33 137q0 127 -91.5 216.5t-222.5 89.5z" />
    <glyph glyph-name="r" unicode="r" horiz-adv-x="784" 
d="M147 619h223q88 0 148 -33q82 -45 82 -140.5t-82 -140.5q-40 -22 -98 -30l223 -283q1 -2 1 -4q0 -7 -6 -7q-4 0 -6 3l-227 289q-18 -2 -35 -2h-217v-283q0 -7 -6.5 -7t-6.5 7v290q0 6 7 6h223q7 0 25 2l-254 322q-1 2 -1 4q0 7 7 7zM160 606l251 -319q60 7 100 30
q75 41 75 128.5t-74 128.5q-58 32 -142 32h-210z" />
    <glyph glyph-name="s" unicode="s" horiz-adv-x="842" 
d="M436 619q83 0 147.5 -22.5t103.5 -60.5q2 -2 2 -5q0 -6 -6 -6q-3 0 -5 2q-37 35 -99.5 57t-142.5 22q-122 0 -200 -53q-33 -23 -50.5 -51t-17.5 -56q0 -31 21 -55q19 -22 58 -39q50 -21 183 -46q135 -26 185 -48q42 -17 63 -41q25 -27 25 -63q0 -78 -87 -128
q-80 -45 -187 -45q-171 0 -286 85q-3 2 -3 5q0 7 7 7q2 0 4 -1q111 -83 278 -83q104 0 180 44q81 46 81 116q0 31 -22 54q-19 22 -58 38q-49 21 -183 46q-134 26 -185 48q-42 18 -63 42q-25 27 -25 64q0 32 19.5 62.5t54.5 55.5q82 55 208 55z" />
    <glyph glyph-name="t" unicode="t" horiz-adv-x="829" 
d="M147 619h535q5 0 6.5 -3.5t0 -6.5t-6.5 -3h-261v-618q0 -5 -3 -6.5t-6.5 0t-3.5 6.5v618h-261q-4 0 -6 3t0 6.5t6 3.5z" />
    <glyph glyph-name="u" unicode="u" horiz-adv-x="778" 
d="M147 619q6 0 6 -7v-382q0 -98 69 -167t167 -69t167 69t69 167v382q0 7 7 7t7 -7v-382q0 -103 -73 -176t-176.5 -73t-176.5 73t-73 176v382q0 7 7 7z" />
    <glyph glyph-name="v" unicode="v" horiz-adv-x="828" 
d="M414 -19q-4 0 -6 4l-267 625q-1 1 -1 2q0 7 7 7q4 0 6 -4l261 -610l262 610q2 4 6 4q7 0 7 -7q0 -1 -1 -2l-267 -625q-2 -4 -7 -4z" />
    <glyph glyph-name="w" unicode="w" horiz-adv-x="1141" 
d="M682 619q7 0 7 -7q0 -1 -1 -2l-110 -258l149 -347l261 610q2 4 6 4q7 0 7 -7v-2l-268 -625q-2 -4 -6.5 -4t-5.5 4l-150 350l-150 -350q-2 -4 -6.5 -4t-6.5 4l-267 625q-1 1 -1 2q0 7 7 7q4 0 6 -4l261 -610l149 347l-110 258q-1 1 -1 2q0 7 7 7q4 0 6 -4l106 -246
l105 246q2 4 6 4z" />
    <glyph glyph-name="x" unicode="x" horiz-adv-x="784" 
d="M147 619q3 0 5 -3l240 -305l240 305q2 3 5 3h1q6 0 6 -7q0 -2 -1 -4l-242 -308l242 -308q1 -2 1 -4q0 -7 -6 -7q-4 0 -6 3l-240 305l-240 -305q-2 -3 -5 -3q-7 0 -7 7q0 2 1 4l243 308l-243 308q-1 2 -1 4q0 7 7 7z" />
    <glyph glyph-name="y" unicode="y" horiz-adv-x="829" 
d="M682 619q7 0 7 -7q0 -2 -1 -4l-267 -340v-280v-1q0 -6 -6.5 -6t-6.5 6v1v280l-266 340q-2 2 -2 4q0 7 7 7q3 0 5 -3l263 -334l262 334q2 3 5 3z" />
    <glyph glyph-name="z" unicode="z" 
d="M593 619q7 0 7 -7q0 -2 -2 -4l-438 -614h433q7 0 7 -6.5t-7 -6.5h-446q-7 0 -7 7q0 2 1 4l439 614l-433 -1q-7 0 -7 7t7 7h446z" />
    <glyph glyph-name="braceleft" unicode="{" horiz-adv-x="236" 
d="M230 708h-45q-63 0 -84 -31q-12 -18 -12 -65v-223q-1 -45 -26 -66q-20 -16 -56 -16q-7 -1 -7 -7.5t7 -6.5q42 0 57 -10q25 -16 25 -72v-223q0 -47 12 -65q21 -31 84 -31h45q6 0 6 6.5t-6 6.5h-45q-56 0 -73 25q-10 15 -10 58v223q0 63 -30 83q-8 5 -19 8q11 5 19 11
q29 24 30 76v0v223q0 43 10 58q17 25 73 25h45q6 0 6 6.5t-6 6.5z" />
    <glyph glyph-name="bar" unicode="|" horiz-adv-x="13" 
d="M0 -98q0 -7 6.5 -7t6.5 7v794q0 7 -6.5 7t-6.5 -7v-794z" />
    <glyph glyph-name="braceright" unicode="}" horiz-adv-x="236" 
d="M7 708h44q64 0 84 -31q12 -18 12 -65v-223q1 -45 26 -66q21 -16 57 -16q6 -1 6 -7.5t-6 -6.5q-43 0 -58 -10q-25 -16 -25 -72v-223q0 -47 -12 -65q-20 -31 -84 -31h-44q-7 0 -7 6.5t7 6.5h44q56 0 73 25q10 15 10 58v223q0 63 31 83q7 5 18 8q-11 5 -18 11q-30 24 -31 76
v0v223q0 43 -10 58q-17 25 -73 25h-44q-7 0 -7 6.5t7 6.5z" />
    <glyph glyph-name="asciitilde" unicode="~" horiz-adv-x="578" 
d="M148 361q34 0 63 -9.5t44 -19t38.5 -27.5t37 -26.5t40.5 -17t60 -8.5q42 0 93 34q12 7 22.5 16t15.5 14l5 4q2 2 5 2q7 0 7 -6q0 -3 -2 -5q-18 -18 -45 -36q-55 -37 -101 -37q-34 0 -63.5 9.5t-44 19t-38 27.5t-37 26.5t-41 17t-59.5 8.5q-42 0 -93 -34q-12 -7 -23 -16
t-16 -14l-5 -4q-2 -2 -4 -2q-7 0 -7 6q0 3 2 5q18 18 45 36q55 37 101 37z" />
    <glyph glyph-name="exclamdown" unicode="&#xa1;" horiz-adv-x="47" 
d="M16 503q0 7 7 7t7 -7v-635q0 -6 -7 -6t-7 6v635zM48 605.5q0 9.5 -7.5 16.5t-17.5 7t-16.5 -7t-6.5 -17t6.5 -16.5t16.5 -6.5t17.5 7t7.5 16.5z" />
    <glyph glyph-name="cent" unicode="&#xa2;" horiz-adv-x="692" 
d="M369.5 619q6.5 0 6.5 -7v-73h2h1q103 0 171 -68q2 -2 2 -5q0 -6 -6 -6q-3 0 -5 2q-65 64 -162 64h-1h-2v-452h2h1q97 0 162 65q2 2 5 2q6 0 6 -7q0 -3 -2 -5q-68 -68 -171 -68h-1h-2v-73q0 -7 -6.5 -7t-6.5 7v73q-96 6 -159.5 73.5t-63.5 165.5t63.5 165.5t159.5 73.5v73
q0 7 6.5 7zM363 525q-91 -5 -150.5 -68.5t-59.5 -156.5t59.5 -156.5t150.5 -68.5v450z" />
    <glyph glyph-name="sterling" unicode="&#xa3;" horiz-adv-x="829" 
d="M504 619q102 0 171 -68q2 -2 2 -5q0 -7 -7 -7q-3 0 -5 2q-64 65 -161 65t-161.5 -64.5t-64.5 -161.5q0 -12 8 -118h307q7 0 7 -6.5t-7 -6.5h-306q2 -36 1 -62q-5 -109 -82 -193h476q7 0 7 -6.5t-7 -6.5h-491q-6 0 -6 7q0 2 2 4q82 83 88 196q1 25 -1 61h-127q-7 0 -7 6.5
t7 6.5h126q-9 102 -9 118q0 102 69 170.5t171 68.5z" />
    <glyph glyph-name="yen" unicode="&#xa5;" horiz-adv-x="829" 
d="M147 619q3 0 5 -3l263 -334l262 334q2 3 5 3q7 0 7 -7q0 -2 -1 -4l-267 -340v-6h127h1q6 0 6 -6.5t-6 -6.5h-1h-127v-76h127h1q6 0 6 -7t-6 -7h-1h-127v-171q0 -7 -6.5 -7t-6.5 7v171h-127q-7 0 -7 7t7 7h127v76h-127q-7 0 -7 6.5t7 6.5h127v6l-266 340q-2 2 -2 4
q0 7 7 7z" />
    <glyph glyph-name="section" unicode="&#xa7;" horiz-adv-x="413" 
d="M218 620q121 0 184 -60q2 -2 2 -5q0 -7 -7 -7q-3 0 -5 2q-58 57 -174 57q-89 0 -145 -38q-49 -34 -49 -76q0 -23 15 -39q14 -16 41 -28q37 -16 133 -34q99 -19 136 -34q30 -13 46 -31q19 -20 19 -47q0 -58 -65 -95q30 -13 46 -30q19 -20 19 -47q0 -58 -65 -95
q-58 -33 -137 -33q-125 0 -209 62q-3 2 -3 5q0 7 7 7q2 0 4 -1q80 -60 201 -60q75 0 131 32q57 33 57 83q0 21 -15 38q-14 15 -42 27q-35 15 -132 33q-98 19 -136 35q-30 14 -46 31q-19 21 -19 48q0 26 17 50.5t48 43.5q-30 13 -46 31q-19 20 -19 48q0 49 55 87
q60 40 153 40zM91 407q-32 -17 -49.5 -40.5t-17.5 -46.5q0 -22 15 -39q14 -15 41 -27q37 -16 133 -34q85 -17 119 -29q68 34 68 89q0 22 -15 38q-14 15 -42 27q-35 15 -132 34q-85 16 -120 28z" />
    <glyph glyph-name="dieresis" unicode="&#xa8;" horiz-adv-x="267" 
d="M267 871.5q0 -11.5 -8.5 -20t-20.5 -8.5t-19.5 8.5t-7.5 20.5t7.5 20t19.5 8t20.5 -8.5t8.5 -20zM57 871.5q0 -11.5 -8.5 -20t-20.5 -8.5t-20 8.5t-8 20.5t8 20t20 8t20.5 -8.5t8.5 -20z" />
    <glyph glyph-name="guillemotleft" unicode="&#xab;" horiz-adv-x="456" 
d="M450 530q7 0 7 -7q0 -3 -2 -5l-219 -218l219 -218q2 -2 2 -5q0 -7 -7 -7q-3 0 -5 2l-223 223q-2 2 -2 5t2 5l223 223q2 2 5 2zM230 530q7 0 7 -7q0 -3 -3 -5l-218 -218l218 -218q3 -2 3 -5q0 -7 -7 -7q-3 0 -5 2l-223 223q-2 2 -2 5t2 5l223 223q2 2 5 2z" />
    <glyph glyph-name="uni00AD" unicode="&#xad;" horiz-adv-x="415" 
d="M7 307h401h1q6 0 6 -7t-6 -7h-1h-401q-7 0 -7 7t7 7z" />
    <glyph glyph-name="macron" unicode="&#xaf;" horiz-adv-x="587" 
d="M147 873h294q7 0 7 -6.5t-7 -6.5h-294q-7 0 -7 6.5t7 6.5z" />
    <glyph glyph-name="degree" unicode="&#xb0;" horiz-adv-x="160" 
d="M79 952q34 0 58 -23.5t24 -57t-24 -57t-58 -23.5t-56.5 23.5t-22.5 57t22.5 57t56.5 23.5zM79 939q-29 0 -47.5 -19.5t-18.5 -48t18.5 -47.5t47.5 -19q28 0 48 19.5t20 47t-20 47.5t-48 20z" />
    <glyph glyph-name="plusminus" unicode="&#xb1;" horiz-adv-x="415" 
d="M7 83h401h1q6 0 6 -7t-6 -7h-1h-401q-7 0 -7 7t7 7zM214 335h194h1q6 0 6 -6.5t-6 -6.5h-1h-194v-194v-1q0 -6 -6.5 -6t-6.5 6v1v194h-194q-7 0 -7 6.5t7 6.5h194v194q0 7 6.5 7t6.5 -7v-194z" />
    <glyph glyph-name="acute" unicode="&#xb4;" horiz-adv-x="192" 
d="M185 923q7 0 7 -7q0 -4 -4 -6l-178 -89q-2 -1 -3 -1q-7 0 -7 7q0 4 4 6l178 89q2 1 3 1z" />
    <glyph glyph-name="cedilla" unicode="&#xb8;" horiz-adv-x="140" 
d="M119 -7v0q7 0 7 -7q0 -2 -2 -4l-54 -83q30 -4 50.5 -26.5t20.5 -52.5q0 -33 -24 -56.5t-58.5 -23.5t-56.5 23q-2 2 -2 5q0 7 7 7q3 0 5 -3q18 -19 47 -19q28 0 48 19.5t20 47.5t-20 47.5t-48 19.5h-1v0v0q-6 1 -6 7q0 2 2 4l59 92q2 3 6 3z" />
    <glyph glyph-name="ordmasculine" unicode="&#xba;" horiz-adv-x="440" 
d="M219 952q34 0 58 -23.5t24 -57t-24 -57t-58 -23.5t-56.5 23.5t-22.5 57t22.5 57t56.5 23.5zM219 939q-29 0 -47.5 -19.5t-18.5 -48t18.5 -47.5t47.5 -19q28 0 48 19.5t20 47t-20 47.5t-48 20z" />
    <glyph glyph-name="guillemotright" unicode="&#xbb;" horiz-adv-x="456" 
d="M7 530q3 0 5 -2l223 -223q2 -2 2 -5t-2 -5l-223 -223q-2 -2 -5 -2q-7 0 -7 7q0 3 2 5l218 218l-218 218q-2 2 -2 5q0 7 7 7zM227 530q3 0 5 -2l223 -223q2 -2 2 -5t-2 -5l-223 -223q-2 -2 -5 -2q-7 0 -7 7q0 3 2 5l219 218l-219 218q-2 2 -2 5q0 7 7 7z" />
    <glyph glyph-name="questiondown" unicode="&#xbf;" horiz-adv-x="356" 
d="M252 640q0 10 7.5 17t17.5 7t16.5 -7t6.5 -17t-6.5 -17t-16.5 -7t-17.5 7t-7.5 17zM185 -138q-112 0 -157 75q-28 45 -28 110q0 31 8 58.5t26.5 55t32.5 44.5t42 48l10 10q29 32 47 54.5t41 57.5t38 75.5t23 88.5q1 5 6 5q7 0 7 -6v-2q-8 -48 -23.5 -90t-39 -78t-42 -59
t-47.5 -55l-10 -10q-28 -31 -41.5 -47.5t-31.5 -42.5t-25.5 -52t-7.5 -55q0 -62 26 -103q42 -69 146 -69v0q89 -1 160 63q2 2 5 2q7 0 7 -7q0 -2 -3 -4q-75 -68 -169 -67z" />
    <glyph glyph-name="Agrave" unicode="&#xc0;" horiz-adv-x="1049" 
d="M144 605l28 -9q-6 -23 -21 -34.5t-38 -11.5q-28 0 -46 19.5t-18 52.5q0 35 18.5 54.5t47.5 19.5q26 0 42 -15q10 -9 14 -26l-28 -7q-2 11 -10 17.5t-19 6.5q-16 0 -25.5 -11.5t-9.5 -36.5q0 -27 9.5 -38t24.5 -11q11 0 19.5 7t11.5 23zM323 553h-31l-12 32h-56l-12 -32
h-30l55 141h30zM271 608l-19 53l-19 -53h38zM338 694h29v-77q0 -18 1 -23q2 -9 8.5 -14t18.5 -5t18.5 5t7.5 12t1 24v78h29v-74q0 -26 -2.5 -36.5t-8.5 -17.5t-16.5 -11.5t-27.5 -4.5q-20 0 -30.5 5t-16.5 12.5t-8 15.5q-3 12 -3 35v76zM512 553v117h-41v24h111v-24h-41
v-117h-29zM600 553v141h28v-141h-28zM650 622q0 22 6 36q5 11 13.5 19.5t17.5 12.5q14 6 31 6q31 0 49.5 -19.5t18.5 -53.5t-18.5 -53.5t-49.5 -19.5t-49.5 19.5t-18.5 52.5zM679 623q0 -24 11 -36t28 -12t28 12t11 37q0 24 -10.5 36t-28.5 12t-28.5 -12t-10.5 -37zM809 553
v141h27l58 -94v94h26v-141h-28l-57 92v-92h-26zM961 589l-7 71v34h29v-34l-7 -71h-15zM955 553v27h27v-27h-27zM0 304v141h53q14 0 21 -2q11 -1 18 -6t11 -13.5t4 -19.5q0 -18 -11 -30.5t-41 -12.5h-36v-57h-19zM19 378h36q18 0 25.5 6.5t7.5 19.5q0 8 -4.5 14.5t-11.5 8.5
q-5 1 -17 1h-36v-50zM132 304v141h102v-17h-84v-43h78v-16h-78v-48h87v-17h-105zM263 304v141h62q19 0 29 -4t16 -13.5t6 -21.5q0 -15 -10 -25t-30 -13q7 -3 11 -7q8 -7 16 -19l24 -38h-23l-19 29q-8 13 -13.5 19.5t-9.5 9.5t-8 4t-11 1h-21v-63h-19zM282 383h40
q12 0 19.5 2.5t11 8.5t3.5 12q0 10 -7 16.5t-23 6.5h-44v-46zM399 349l17 2q1 -11 5.5 -17.5t14.5 -11t22 -4.5q10 0 18.5 3.5t12.5 9t4 12t-4 11.5t-13 8q-6 2 -25 7t-27 9q-10 5 -15 13t-5 17q0 11 6 20.5t17.5 14t25.5 4.5q16 0 28 -5t18.5 -14.5t6.5 -22.5l-17 -1
q-2 13 -10.5 20t-24.5 7q-17 0 -24.5 -6.5t-7.5 -14.5t5.5 -13t28 -10t31.5 -9q12 -5 18 -14t6 -20t-6.5 -21t-18.5 -15.5t-27 -5.5q-20 0 -32.5 5.5t-20 16.5t-7.5 25zM531 373q0 35 18.5 54.5t48.5 19.5q19 0 35 -9t24 -26t8 -38t-8.5 -38t-24.5 -25.5t-34 -8.5
q-20 0 -35.5 9.5t-23.5 26t-8 35.5zM550 372q0 -25 13.5 -39.5t34.5 -14.5t34.5 14.5t13.5 41.5q0 18 -6 30.5t-17 19.5t-25 7q-20 0 -34 -13.5t-14 -45.5zM689 304v141h19l74 -111v111h18v-141h-19l-74 111v-111h-18zM816 304l54 141h20l58 -141h-22l-16 43h-59l-15 -43
h-20zM856 362h48l-15 39q-6 18 -10 29q-2 -14 -7 -27zM962 304v141h19v-124h69v-17h-88zM123 196h19v-81q0 -21 -5 -33.5t-17.5 -20.5t-32.5 -8t-32.5 7t-18 19.5t-5.5 35.5v81h19v-81q0 -18 3.5 -27t11.5 -13.5t20 -4.5q21 0 29.5 9t8.5 36v81zM167 101l17 1q2 -10 6.5 -17
t14 -11t21.5 -4q11 0 19 3t12 8.5t4 12t-4 11.5t-13 8q-5 3 -24.5 7.5t-27.5 8.5q-10 5 -15 13t-5 18t6 19.5t18 14.5t26 5q15 0 27 -5.5t18.5 -15t7.5 -22.5l-18 -1q-2 13 -10 20t-24 7q-17 0 -25 -6t-8 -15q0 -8 5.5 -12.5t28 -10t31.5 -8.5q12 -6 18 -15t6 -20t-6.5 -21
t-18.5 -15.5t-27 -5.5q-19 0 -32 5.5t-20.5 17t-7.5 25.5zM305 55v141h102v-16h-83v-44h77v-16h-77v-48h86v-17h-105zM485 124q0 35 19 55t48 20q20 0 35.5 -9.5t24 -26t8.5 -37.5q0 -22 -9 -39t-24.5 -25.5t-34.5 -8.5q-20 0 -35.5 9.5t-23.5 26t-8 35.5zM504 124
q0 -26 13.5 -40.5t34.5 -14.5t34.5 15t13.5 42q0 17 -5.5 29.5t-17 20t-25.5 7.5q-19 0 -33.5 -14t-14.5 -45zM643 55v141h19l74 -110v110h18v-141h-19l-74 111v-111h-18zM785 55v141h18v-124h70v-17h-88zM920 55v60l-54 81h23l27 -42q8 -12 15 -24q6 11 15 25l27 41h22
l-56 -81v-60h-19zM989 55v20h20v-20h-20z" />
    <glyph glyph-name="Aacute" unicode="&#xc1;" horiz-adv-x="2476" 
d="M207 608v16l59 1v-53q-13 -11 -28 -16.5t-30 -5.5q-21 0 -38 9t-25.5 26t-8.5 37.5t8.5 38.5t25 26.5t37.5 8.5q15 0 27.5 -5t19.5 -14t10 -23l-17 -4q-3 10 -7.5 16.5t-13.5 10t-19 3.5q-13 0 -22.5 -4t-15 -10t-8.5 -14q-6 -13 -6 -28q0 -19 6.5 -32t19 -19t26.5 -6
q12 0 23.5 4.5t17.5 10.5v26h-41zM294 553v141h102v-17h-83v-43h78v-17h-78v-48h86v-16h-105zM461 553v124h-46v17h111v-17h-46v-124h-19zM629 553v124h-47v17h112v-17h-47v-124h-18zM714 553v141h18v-58h74v58h18v-141h-18v66h-74v-66h-18zM856 553v141h102v-17h-84v-43h78
v-17h-78v-48h87v-16h-105zM1142 602l18 -5q-5 -23 -20.5 -35t-37.5 -12q-23 0 -37 9.5t-21.5 27t-7.5 37.5q0 22 8.5 38.5t24 25t33.5 8.5q22 0 36 -11t20 -30l-18 -4q-5 15 -14.5 22t-23.5 7q-16 0 -27 -8t-15.5 -21t-4.5 -27q0 -18 5.5 -31t16.5 -20t24 -7q15 0 26 9
t15 27zM1178 621q0 35 18.5 55t48.5 20q20 0 35.5 -9.5t23.5 -26t8 -37.5t-8.5 -38t-24.5 -26t-34 -9q-20 0 -35.5 10t-23.5 26.5t-8 34.5zM1197 621q0 -25 13.5 -40t34.5 -15t34.5 15t13.5 42q0 17 -5.5 30t-17 20t-25.5 7q-19 0 -33.5 -13.5t-14.5 -45.5zM1336 553v141h28
l33 -100q5 -14 7 -21q2 8 7 23l34 98h25v-141h-18v118l-41 -118h-17l-40 120v-120h-18zM1500 553v141h28l33 -100q5 -14 7 -21q2 8 7 23l34 98h25v-141h-18v118l-41 -118h-16l-41 120v-120h-18zM1665 553v141h102v-17h-84v-43h78v-17h-78v-48h87v-16h-105zM1796 553v141h63
q18 0 28 -4t16 -13.5t6 -21.5q0 -15 -10 -25t-30 -13q7 -4 11 -7q8 -8 16 -19l24 -38h-23l-19 29q-8 13 -13.5 19.5t-9.5 9.5t-8 4h-11h-21v-62h-19zM1815 631h40q13 0 20 3t10.5 8.5t3.5 12.5q0 10 -7 16.5t-23 6.5h-44v-47zM2038 602l19 -5q-6 -23 -21 -35t-37 -12
q-23 0 -37.5 9.5t-21.5 27t-7 37.5q0 22 8 38.5t23.5 25t34.5 8.5q21 0 35.5 -11t20.5 -30l-19 -4q-5 15 -14 22t-23 7q-17 0 -27.5 -8t-15 -21t-4.5 -27q0 -18 5 -31t16 -20t24 -7q16 0 27 9t14 27zM2083 553v141h19v-141h-19zM2119 553l54 141h20l58 -141h-21l-17 42h-59
l-15 -42h-20zM2160 611h48l-15 39q-7 17 -10 29q-3 -14 -8 -27zM2265 553v141h19v-125h69v-16h-88zM0 304v141h19v-124h69v-17h-88zM113 304v141h19v-141h-19zM265 353l19 -4q-6 -23 -21 -35t-37 -12q-23 0 -37.5 9t-22 26.5t-7.5 38.5t8.5 37.5t24 25t34.5 8.5
q21 0 35.5 -10.5t19.5 -30.5l-18 -4q-5 15 -14 22t-23 7q-17 0 -28 -7.5t-15 -20.5t-4 -27q0 -18 5 -31.5t16 -20t24 -6.5q16 0 26.5 9t14.5 26zM307 304v141h102v-17h-83v-43h78v-16h-78v-48h86v-17h-105zM438 304v141h19l74 -111v111h18v-141h-19l-74 111v-111h-18z
M574 349l18 2q1 -11 5.5 -17.5t14 -11t21.5 -4.5q11 0 19 3.5t12 9t4 12t-3.5 11.5t-12.5 8q-6 2 -25.5 7t-27.5 9q-10 5 -14.5 13t-4.5 17q0 11 6 20.5t17.5 14t25.5 4.5q16 0 28 -5t18 -14.5t7 -22.5l-18 -1q-1 13 -9.5 20t-24.5 7q-17 0 -25 -6.5t-8 -14.5t5.5 -13
t28.5 -10t31 -9q12 -5 18 -14t6 -20t-6.5 -21t-18.5 -15.5t-27 -5.5q-19 0 -32 5.5t-20 16.5t-8 25zM712 304v141h102v-17h-83v-43h78v-16h-78v-48h86v-17h-105zM892 373q0 35 19 54.5t49 19.5q19 0 34.5 -9t24 -26t8.5 -38t-9 -38t-24.5 -25.5t-34.5 -8.5t-35 9.5t-24 26
t-8 35.5zM911 372q0 -25 14 -39.5t34 -14.5q21 0 35 14.5t14 41.5q0 18 -6 30.5t-17 19.5t-25 7q-20 0 -34.5 -13.5t-14.5 -45.5zM1052 304v141h95v-17h-77v-43h66v-17h-66v-64h-18zM1258 304v124h-46v17h111v-17h-46v-124h-19zM1343 304v141h19v-58h73v58h18v-141h-18v66
h-73v-66h-19zM1488 304v141h18v-141h-18zM1533 349l17 2q2 -11 6.5 -17.5t14 -11t21.5 -4.5q11 0 19 3.5t12 9t4 12t-4 11.5t-13 8q-5 2 -24.5 7t-27.5 9q-10 5 -15 13t-5 17q0 11 6 20.5t17.5 14t26.5 4.5t27 -5t18.5 -14.5t7.5 -22.5l-18 -1q-2 13 -10 20t-25 7
t-24.5 -6.5t-7.5 -14.5t5.5 -13t28 -10t31.5 -9q12 -5 18 -14t6 -20t-6.5 -21t-18.5 -15.5t-27 -5.5q-19 0 -32 5.5t-20.5 16.5t-7.5 25zM1726 304v141h95v-17h-76v-43h66v-17h-66v-64h-19zM1840 373q0 35 18.5 54.5t48.5 19.5q19 0 35 -9t24 -26t8 -38t-8.5 -38
t-24.5 -25.5t-34 -8.5q-20 0 -35.5 9.5t-23.5 26t-8 35.5zM1859 372q0 -25 13.5 -39.5t34.5 -14.5t34.5 14.5t13.5 41.5q0 18 -6 30.5t-17 19.5t-25 7q-20 0 -34 -13.5t-14 -45.5zM1998 304v141h19l74 -111v111h18v-141h-19l-74 111v-111h-18zM2176 304v124h-46v17h111v-17
h-46v-124h-19zM2315 304v141h18v-141h-18zM2366 304v141h19l74 -111v111h18v-141h-19l-74 111v-111h-18zM175 55l-33 141h29l21 -97l26 97h34l24 -98l22 98h29l-35 -141h-30l-28 106l-28 -106h-31zM361 55l-34 141h29l22 -97l25 97h34l25 -98l21 98h29l-34 -141h-30l-28 106
l-28 -106h-31zM546 55l-33 141h29l21 -97l26 97h34l24 -98l22 98h29l-35 -141h-30l-28 106l-28 -106h-31zM701 55v27h27v-27h-27zM883 55h-31l-12 32h-57l-11 -32h-30l54 141h30zM830 111l-19 52l-19 -52h38zM898 55v141h28l58 -94v94h26v-141h-29l-56 92v-92h-27zM1040 196
h52q18 0 27 -3q12 -3 21 -12.5t13.5 -23t4.5 -33.5q0 -17 -4 -30q-6 -15 -15 -24q-8 -8 -20 -12q-10 -3 -26 -3h-53v141zM1068 172v-93h22q12 0 17 1q7 2 11.5 6t7.5 13.5t3 26t-3 25t-8.5 13.5t-12.5 7q-6 1 -24 1h-13zM1181 55v141h29v-141h-29zM1237 55v141h29v-62l57 62
h38l-53 -55l56 -86h-37l-38 66l-23 -23v-43h-29zM1506 55h-31l-12 32h-57l-11 -32h-30l54 141h31zM1454 111l-20 52l-19 -52h39zM1521 55v141h97v-24h-68v-33h58v-24h-58v-60h-29zM1641 55v141h105v-24h-76v-31h70v-24h-70v-38h78v-24h-107zM1761 55v26l73 91h-65v24h103
v-22l-77 -95h80v-24h-114zM1893 55v27h27v-27h-27zM2038 107l27 -9q-6 -23 -21 -34t-37 -11q-28 0 -46 19t-18 53q0 35 18 54.5t47 19.5q26 0 42 -16q10 -9 15 -26l-28 -6q-3 11 -11 17t-19 6q-16 0 -25.5 -11t-9.5 -36q0 -27 9.5 -38.5t24.5 -11.5q12 0 20 7.5t12 22.5z
M2084 125q0 21 6 36q5 11 13.5 19.5t18.5 12.5q13 6 30 6q31 0 49.5 -19.5t18.5 -53.5q0 -35 -18.5 -54t-49.5 -19t-49.5 19t-18.5 53zM2113 126q0 -24 11 -36.5t28 -12.5t28 12.5t11 36.5t-10.5 36t-28 12t-28.5 -12t-11 -36zM2242 55v141h43l25 -96l25 96h43v-141h-26v111
l-28 -111h-28l-27 111v-111h-27z" />
    <glyph glyph-name="agrave" unicode="&#xe0;" horiz-adv-x="1049" 
d="M144 605l28 -9q-6 -23 -21 -34.5t-38 -11.5q-28 0 -46 19.5t-18 52.5q0 35 18.5 54.5t47.5 19.5q26 0 42 -15q10 -9 14 -26l-28 -7q-2 11 -10 17.5t-19 6.5q-16 0 -25.5 -11.5t-9.5 -36.5q0 -27 9.5 -38t24.5 -11q11 0 19.5 7t11.5 23zM323 553h-31l-12 32h-56l-12 -32
h-30l55 141h30zM271 608l-19 53l-19 -53h38zM338 694h29v-77q0 -18 1 -23q2 -9 8.5 -14t18.5 -5t18.5 5t7.5 12t1 24v78h29v-74q0 -26 -2.5 -36.5t-8.5 -17.5t-16.5 -11.5t-27.5 -4.5q-20 0 -30.5 5t-16.5 12.5t-8 15.5q-3 12 -3 35v76zM512 553v117h-41v24h111v-24h-41
v-117h-29zM600 553v141h28v-141h-28zM650 622q0 22 6 36q5 11 13.5 19.5t17.5 12.5q14 6 31 6q31 0 49.5 -19.5t18.5 -53.5t-18.5 -53.5t-49.5 -19.5t-49.5 19.5t-18.5 52.5zM679 623q0 -24 11 -36t28 -12t28 12t11 37q0 24 -10.5 36t-28.5 12t-28.5 -12t-10.5 -37zM809 553
v141h27l58 -94v94h26v-141h-28l-57 92v-92h-26zM961 589l-7 71v34h29v-34l-7 -71h-15zM955 553v27h27v-27h-27zM0 304v141h53q14 0 21 -2q11 -1 18 -6t11 -13.5t4 -19.5q0 -18 -11 -30.5t-41 -12.5h-36v-57h-19zM19 378h36q18 0 25.5 6.5t7.5 19.5q0 8 -4.5 14.5t-11.5 8.5
q-5 1 -17 1h-36v-50zM132 304v141h102v-17h-84v-43h78v-16h-78v-48h87v-17h-105zM263 304v141h62q19 0 29 -4t16 -13.5t6 -21.5q0 -15 -10 -25t-30 -13q7 -3 11 -7q8 -7 16 -19l24 -38h-23l-19 29q-8 13 -13.5 19.5t-9.5 9.5t-8 4t-11 1h-21v-63h-19zM282 383h40
q12 0 19.5 2.5t11 8.5t3.5 12q0 10 -7 16.5t-23 6.5h-44v-46zM399 349l17 2q1 -11 5.5 -17.5t14.5 -11t22 -4.5q10 0 18.5 3.5t12.5 9t4 12t-4 11.5t-13 8q-6 2 -25 7t-27 9q-10 5 -15 13t-5 17q0 11 6 20.5t17.5 14t25.5 4.5q16 0 28 -5t18.5 -14.5t6.5 -22.5l-17 -1
q-2 13 -10.5 20t-24.5 7q-17 0 -24.5 -6.5t-7.5 -14.5t5.5 -13t28 -10t31.5 -9q12 -5 18 -14t6 -20t-6.5 -21t-18.5 -15.5t-27 -5.5q-20 0 -32.5 5.5t-20 16.5t-7.5 25zM531 373q0 35 18.5 54.5t48.5 19.5q19 0 35 -9t24 -26t8 -38t-8.5 -38t-24.5 -25.5t-34 -8.5
q-20 0 -35.5 9.5t-23.5 26t-8 35.5zM550 372q0 -25 13.5 -39.5t34.5 -14.5t34.5 14.5t13.5 41.5q0 18 -6 30.5t-17 19.5t-25 7q-20 0 -34 -13.5t-14 -45.5zM689 304v141h19l74 -111v111h18v-141h-19l-74 111v-111h-18zM816 304l54 141h20l58 -141h-22l-16 43h-59l-15 -43
h-20zM856 362h48l-15 39q-6 18 -10 29q-2 -14 -7 -27zM962 304v141h19v-124h69v-17h-88zM123 196h19v-81q0 -21 -5 -33.5t-17.5 -20.5t-32.5 -8t-32.5 7t-18 19.5t-5.5 35.5v81h19v-81q0 -18 3.5 -27t11.5 -13.5t20 -4.5q21 0 29.5 9t8.5 36v81zM167 101l17 1q2 -10 6.5 -17
t14 -11t21.5 -4q11 0 19 3t12 8.5t4 12t-4 11.5t-13 8q-5 3 -24.5 7.5t-27.5 8.5q-10 5 -15 13t-5 18t6 19.5t18 14.5t26 5q15 0 27 -5.5t18.5 -15t7.5 -22.5l-18 -1q-2 13 -10 20t-24 7q-17 0 -25 -6t-8 -15q0 -8 5.5 -12.5t28 -10t31.5 -8.5q12 -6 18 -15t6 -20t-6.5 -21
t-18.5 -15.5t-27 -5.5q-19 0 -32 5.5t-20.5 17t-7.5 25.5zM305 55v141h102v-16h-83v-44h77v-16h-77v-48h86v-17h-105zM485 124q0 35 19 55t48 20q20 0 35.5 -9.5t24 -26t8.5 -37.5q0 -22 -9 -39t-24.5 -25.5t-34.5 -8.5q-20 0 -35.5 9.5t-23.5 26t-8 35.5zM504 124
q0 -26 13.5 -40.5t34.5 -14.5t34.5 15t13.5 42q0 17 -5.5 29.5t-17 20t-25.5 7.5q-19 0 -33.5 -14t-14.5 -45zM643 55v141h19l74 -110v110h18v-141h-19l-74 111v-111h-18zM785 55v141h18v-124h70v-17h-88zM920 55v60l-54 81h23l27 -42q8 -12 15 -24q6 11 15 25l27 41h22
l-56 -81v-60h-19zM989 55v20h20v-20h-20z" />
    <glyph glyph-name="aacute" unicode="&#xe1;" horiz-adv-x="2476" 
d="M207 608v16l59 1v-53q-13 -11 -28 -16.5t-30 -5.5q-21 0 -38 9t-25.5 26t-8.5 37.5t8.5 38.5t25 26.5t37.5 8.5q15 0 27.5 -5t19.5 -14t10 -23l-17 -4q-3 10 -7.5 16.5t-13.5 10t-19 3.5q-13 0 -22.5 -4t-15 -10t-8.5 -14q-6 -13 -6 -28q0 -19 6.5 -32t19 -19t26.5 -6
q12 0 23.5 4.5t17.5 10.5v26h-41zM294 553v141h102v-17h-83v-43h78v-17h-78v-48h86v-16h-105zM461 553v124h-46v17h111v-17h-46v-124h-19zM629 553v124h-47v17h112v-17h-47v-124h-18zM714 553v141h18v-58h74v58h18v-141h-18v66h-74v-66h-18zM856 553v141h102v-17h-84v-43h78
v-17h-78v-48h87v-16h-105zM1142 602l18 -5q-5 -23 -20.5 -35t-37.5 -12q-23 0 -37 9.5t-21.5 27t-7.5 37.5q0 22 8.5 38.5t24 25t33.5 8.5q22 0 36 -11t20 -30l-18 -4q-5 15 -14.5 22t-23.5 7q-16 0 -27 -8t-15.5 -21t-4.5 -27q0 -18 5.5 -31t16.5 -20t24 -7q15 0 26 9
t15 27zM1178 621q0 35 18.5 55t48.5 20q20 0 35.5 -9.5t23.5 -26t8 -37.5t-8.5 -38t-24.5 -26t-34 -9q-20 0 -35.5 10t-23.5 26.5t-8 34.5zM1197 621q0 -25 13.5 -40t34.5 -15t34.5 15t13.5 42q0 17 -5.5 30t-17 20t-25.5 7q-19 0 -33.5 -13.5t-14.5 -45.5zM1336 553v141h28
l33 -100q5 -14 7 -21q2 8 7 23l34 98h25v-141h-18v118l-41 -118h-17l-40 120v-120h-18zM1500 553v141h28l33 -100q5 -14 7 -21q2 8 7 23l34 98h25v-141h-18v118l-41 -118h-16l-41 120v-120h-18zM1665 553v141h102v-17h-84v-43h78v-17h-78v-48h87v-16h-105zM1796 553v141h63
q18 0 28 -4t16 -13.5t6 -21.5q0 -15 -10 -25t-30 -13q7 -4 11 -7q8 -8 16 -19l24 -38h-23l-19 29q-8 13 -13.5 19.5t-9.5 9.5t-8 4h-11h-21v-62h-19zM1815 631h40q13 0 20 3t10.5 8.5t3.5 12.5q0 10 -7 16.5t-23 6.5h-44v-47zM2038 602l19 -5q-6 -23 -21 -35t-37 -12
q-23 0 -37.5 9.5t-21.5 27t-7 37.5q0 22 8 38.5t23.5 25t34.5 8.5q21 0 35.5 -11t20.5 -30l-19 -4q-5 15 -14 22t-23 7q-17 0 -27.5 -8t-15 -21t-4.5 -27q0 -18 5 -31t16 -20t24 -7q16 0 27 9t14 27zM2083 553v141h19v-141h-19zM2119 553l54 141h20l58 -141h-21l-17 42h-59
l-15 -42h-20zM2160 611h48l-15 39q-7 17 -10 29q-3 -14 -8 -27zM2265 553v141h19v-125h69v-16h-88zM0 304v141h19v-124h69v-17h-88zM113 304v141h19v-141h-19zM265 353l19 -4q-6 -23 -21 -35t-37 -12q-23 0 -37.5 9t-22 26.5t-7.5 38.5t8.5 37.5t24 25t34.5 8.5
q21 0 35.5 -10.5t19.5 -30.5l-18 -4q-5 15 -14 22t-23 7q-17 0 -28 -7.5t-15 -20.5t-4 -27q0 -18 5 -31.5t16 -20t24 -6.5q16 0 26.5 9t14.5 26zM307 304v141h102v-17h-83v-43h78v-16h-78v-48h86v-17h-105zM438 304v141h19l74 -111v111h18v-141h-19l-74 111v-111h-18z
M574 349l18 2q1 -11 5.5 -17.5t14 -11t21.5 -4.5q11 0 19 3.5t12 9t4 12t-3.5 11.5t-12.5 8q-6 2 -25.5 7t-27.5 9q-10 5 -14.5 13t-4.5 17q0 11 6 20.5t17.5 14t25.5 4.5q16 0 28 -5t18 -14.5t7 -22.5l-18 -1q-1 13 -9.5 20t-24.5 7q-17 0 -25 -6.5t-8 -14.5t5.5 -13
t28.5 -10t31 -9q12 -5 18 -14t6 -20t-6.5 -21t-18.5 -15.5t-27 -5.5q-19 0 -32 5.5t-20 16.5t-8 25zM712 304v141h102v-17h-83v-43h78v-16h-78v-48h86v-17h-105zM892 373q0 35 19 54.5t49 19.5q19 0 34.5 -9t24 -26t8.5 -38t-9 -38t-24.5 -25.5t-34.5 -8.5t-35 9.5t-24 26
t-8 35.5zM911 372q0 -25 14 -39.5t34 -14.5q21 0 35 14.5t14 41.5q0 18 -6 30.5t-17 19.5t-25 7q-20 0 -34.5 -13.5t-14.5 -45.5zM1052 304v141h95v-17h-77v-43h66v-17h-66v-64h-18zM1258 304v124h-46v17h111v-17h-46v-124h-19zM1343 304v141h19v-58h73v58h18v-141h-18v66
h-73v-66h-19zM1488 304v141h18v-141h-18zM1533 349l17 2q2 -11 6.5 -17.5t14 -11t21.5 -4.5q11 0 19 3.5t12 9t4 12t-4 11.5t-13 8q-5 2 -24.5 7t-27.5 9q-10 5 -15 13t-5 17q0 11 6 20.5t17.5 14t26.5 4.5t27 -5t18.5 -14.5t7.5 -22.5l-18 -1q-2 13 -10 20t-25 7
t-24.5 -6.5t-7.5 -14.5t5.5 -13t28 -10t31.5 -9q12 -5 18 -14t6 -20t-6.5 -21t-18.5 -15.5t-27 -5.5q-19 0 -32 5.5t-20.5 16.5t-7.5 25zM1726 304v141h95v-17h-76v-43h66v-17h-66v-64h-19zM1840 373q0 35 18.5 54.5t48.5 19.5q19 0 35 -9t24 -26t8 -38t-8.5 -38
t-24.5 -25.5t-34 -8.5q-20 0 -35.5 9.5t-23.5 26t-8 35.5zM1859 372q0 -25 13.5 -39.5t34.5 -14.5t34.5 14.5t13.5 41.5q0 18 -6 30.5t-17 19.5t-25 7q-20 0 -34 -13.5t-14 -45.5zM1998 304v141h19l74 -111v111h18v-141h-19l-74 111v-111h-18zM2176 304v124h-46v17h111v-17
h-46v-124h-19zM2315 304v141h18v-141h-18zM2366 304v141h19l74 -111v111h18v-141h-19l-74 111v-111h-18zM175 55l-33 141h29l21 -97l26 97h34l24 -98l22 98h29l-35 -141h-30l-28 106l-28 -106h-31zM361 55l-34 141h29l22 -97l25 97h34l25 -98l21 98h29l-34 -141h-30l-28 106
l-28 -106h-31zM546 55l-33 141h29l21 -97l26 97h34l24 -98l22 98h29l-35 -141h-30l-28 106l-28 -106h-31zM701 55v27h27v-27h-27zM883 55h-31l-12 32h-57l-11 -32h-30l54 141h30zM830 111l-19 52l-19 -52h38zM898 55v141h28l58 -94v94h26v-141h-29l-56 92v-92h-27zM1040 196
h52q18 0 27 -3q12 -3 21 -12.5t13.5 -23t4.5 -33.5q0 -17 -4 -30q-6 -15 -15 -24q-8 -8 -20 -12q-10 -3 -26 -3h-53v141zM1068 172v-93h22q12 0 17 1q7 2 11.5 6t7.5 13.5t3 26t-3 25t-8.5 13.5t-12.5 7q-6 1 -24 1h-13zM1181 55v141h29v-141h-29zM1237 55v141h29v-62l57 62
h38l-53 -55l56 -86h-37l-38 66l-23 -23v-43h-29zM1506 55h-31l-12 32h-57l-11 -32h-30l54 141h31zM1454 111l-20 52l-19 -52h39zM1521 55v141h97v-24h-68v-33h58v-24h-58v-60h-29zM1641 55v141h105v-24h-76v-31h70v-24h-70v-38h78v-24h-107zM1761 55v26l73 91h-65v24h103
v-22l-77 -95h80v-24h-114zM1893 55v27h27v-27h-27zM2038 107l27 -9q-6 -23 -21 -34t-37 -11q-28 0 -46 19t-18 53q0 35 18 54.5t47 19.5q26 0 42 -16q10 -9 15 -26l-28 -6q-3 11 -11 17t-19 6q-16 0 -25.5 -11t-9.5 -36q0 -27 9.5 -38.5t24.5 -11.5q12 0 20 7.5t12 22.5z
M2084 125q0 21 6 36q5 11 13.5 19.5t18.5 12.5q13 6 30 6q31 0 49.5 -19.5t18.5 -53.5q0 -35 -18.5 -54t-49.5 -19t-49.5 19t-18.5 53zM2113 126q0 -24 11 -36.5t28 -12.5t28 12.5t11 36.5t-10.5 36t-28 12t-28.5 -12t-11 -36zM2242 55v141h43l25 -96l25 96h43v-141h-26v111
l-28 -111h-28l-27 111v-111h-27z" />
    <glyph glyph-name="circumflex" unicode="&#x2c6;" horiz-adv-x="370" 
d="M185 923q2 0 3 -1l179 -89q4 -2 4 -6q0 -7 -7 -7q-2 0 -3 1l-176 88l-175 -88q-2 -1 -3 -1q-7 0 -7 7q0 4 4 6l178 89q2 1 3 1z" />
    <glyph glyph-name="caron" unicode="&#x2c7;" horiz-adv-x="370" 
d="M185 820q2 0 3 1l179 89q4 2 4 6q0 7 -7 7q-2 0 -3 -1l-176 -88l-175 88q-2 1 -3 1q-7 0 -7 -7q0 -4 4 -6l178 -89q2 -1 3 -1z" />
    <glyph glyph-name="breve" unicode="&#x2d8;" horiz-adv-x="160" 
d="M161 919v-47q0 -34 -24 -57.5t-58 -23.5t-56.5 23.5t-22.5 57.5v47h13v-47q0 -29 18.5 -48t47.5 -19q28 0 48 19.5t20 47.5v47h14z" />
    <glyph glyph-name="dotaccent" unicode="&#x2d9;" horiz-adv-x="56" 
d="M57 871.5q0 -11.5 -8.5 -20t-20.5 -8.5t-20 8.5t-8 20.5t8 20t20 8t20.5 -8.5t8.5 -20z" />
    <glyph glyph-name="ring" unicode="&#x2da;" horiz-adv-x="160" 
d="M79 952q34 0 58 -23.5t24 -57t-24 -57t-58 -23.5t-56.5 23.5t-22.5 57t22.5 57t56.5 23.5zM79 939q-29 0 -47.5 -19.5t-18.5 -48t18.5 -47.5t47.5 -19q28 0 48 19.5t20 47t-20 47.5t-48 20z" />
    <glyph glyph-name="tilde" unicode="&#x2dc;" horiz-adv-x="370" 
d="M96 912q21 0 40 -6t28.5 -12t24.5 -17.5t23.5 -16.5t25 -10.5t36.5 -5.5q26 0 58 21l27 22q2 2 5 2q6 0 6 -7q0 -3 -2 -5q-11 -11 -29 -23q-35 -23 -65 -23q-21 0 -40 6t-28.5 12t-24.5 17.5t-23 16.5t-25 10.5t-37 5.5q-26 0 -58 -21l-27 -22q-2 -2 -4 -2q-7 0 -7 7
q0 3 2 5q12 12 29 23q35 23 65 23z" />
    <glyph glyph-name="hungarumlaut" unicode="&#x2dd;" horiz-adv-x="379" 
d="M185 923q7 0 7 -7q0 -4 -4 -6l-178 -89q-2 -1 -3 -1q-7 0 -7 7q0 4 4 6l178 89q2 1 3 1zM372 923q7 0 7 -7q0 -4 -4 -6l-178 -89q-2 -1 -3 -1q-7 0 -7 7q0 4 4 6l178 89q2 1 3 1z" />
    <glyph glyph-name="emdash" unicode="&#x2014;" horiz-adv-x="415" 
d="M7 307h401h1q6 0 6 -7t-6 -7h-1h-401q-7 0 -7 7t7 7z" />
    <glyph glyph-name="quoteright" unicode="&#x2019;" horiz-adv-x="147" 
d="M141 662q6 0 6 -7q0 -2 -1 -4l-134 -223q-2 -3 -5 -3q-7 0 -7 7q0 2 1 3l134 223q2 4 6 4z" />
    <glyph glyph-name="Euro" unicode="&#x20ac;" horiz-adv-x="820" 
d="M548 619q67 0 128 -25q4 -2 4 -6q0 -7 -6 -7q-2 0 -3 1q-58 24 -123 24q-115 0 -196 -72t-98 -183h161q6 0 6 -6.5t-6 -6.5h-162q-2 -20 -2 -38t2 -38h162q6 0 6 -6.5t-6 -6.5h-161q17 -111 98 -183t196 -72q65 0 123 24q1 1 3 1q6 0 6 -7q0 -4 -4 -6q-61 -25 -128 -25
q-120 0 -205 76t-102 192h-94q-7 0 -7 6.5t7 6.5h92q-2 20 -2 38t2 38h-92q-7 0 -7 6.5t7 6.5h94q17 116 102 192t205 76z" />
    <glyph glyph-name="a.1" unicode="&#xe000;" horiz-adv-x="829" 
d="M682 619q7 0 7 -7v-624q0 -4 -3.5 -6t-6.5 0t-3 6v194h-354l-170 -199q-3 -3 -6.5 -2t-5 4.5t1.5 6.5l535 625q2 2 5 2zM676 594l-342 -399h342v399z" />
    <glyph glyph-name="a.2" unicode="&#xe001;" horiz-adv-x="828" 
d="M414 619q5 0 7 -4l267 -625q1 -1 1 -2q0 -7 -7 -7h-535q-7 0 -7 7q0 1 1 2l267 625q2 4 6 4zM414 595l-257 -601h515z" />
    <glyph glyph-name="a.3" unicode="&#xe002;" horiz-adv-x="828" 
d="M414 619q5 0 7 -4l267 -625q1 -1 1 -2q0 -7 -7 -7q-4 0 -6 4l-84 197h-355l-84 -197q-2 -4 -6 -4q-7 0 -7 7q0 1 1 2l267 625q2 4 6 4zM414 595l-171 -400h343z" />
    <glyph glyph-name="a.4" unicode="&#xe003;" horiz-adv-x="829" 
d="M147 619q-7 0 -7 -7v-624q0 -4 3.5 -6t7 0t2.5 6v194h354l170 -199q3 -3 6.5 -2t5 4.5t-1.5 6.5l-535 625q-2 2 -5 2zM153 594l342 -399h-342v399z" />
    <glyph glyph-name="b.1" unicode="&#xe004;" horiz-adv-x="738" 
d="M146 619h209q91 0 144 -25q77 -35 77 -122t-77 -127q-27 -14 -64 -21q49 -7 82 -24q82 -43 82 -144t-82 -144q-56 -31 -148 -31h-223q-6 0 -6 7v624q0 7 6 7zM153 606v-277h202q85 0 138 27q71 36 71 116q0 78 -70 111q-51 23 -139 23h-202zM153 316v-322h216
q89 0 142 29q75 40 75 133q0 94 -75 133q-52 27 -142 27h-14h-202z" />
    <glyph glyph-name="d.1" unicode="&#xe005;" 
d="M147 619h89q192 0 284 -91q80 -80 80 -228t-80 -228q-92 -91 -284 -91h-89q-7 0 -7 7v624q0 7 7 7zM236 606h-83v-612h83q187 0 274 88q76 76 76 218t-76 218q-87 88 -274 88z" />
    <glyph glyph-name="e.1" unicode="&#xe006;" 
d="M147 619h446q7 0 7 -6.5t-7 -6.5h-440v-299h395q7 0 7 -7t-7 -7h-395v-299h440q7 0 7 -6.5t-7 -6.5h-446q-7 0 -7 7v624q0 7 7 7z" />
    <glyph glyph-name="e.2" unicode="&#xe007;" 
d="M147 619h446q7 0 7 -6.5t-7 -6.5h-425l429 -301q3 -1 3 -5q0 -7 -7 -7h-425l429 -300q3 -2 3 -5q0 -7 -7 -7q-2 0 -4 1l-446 313q-3 2 -3 5q0 7 7 7h425l-429 300q-3 2 -3 5q0 7 7 7z" />
    <glyph glyph-name="f.1" unicode="&#xe008;" 
d="M147 619h446q7 0 7 -6.5t-7 -6.5h-440v-299h395q7 0 7 -7t-7 -7h-395v-305q0 -7 -6.5 -7t-6.5 7v624q0 7 7 7z" />
    <glyph glyph-name="f.2" unicode="&#xe009;" 
d="M147 619h446q7 0 7 -6.5t-7 -6.5h-425l429 -301q3 -2 3 -5q0 -7 -7 -7h-440v-305q0 -7 -6.5 -7t-6.5 7v312q0 7 7 7h425l-429 300q-3 2 -3 5q0 7 7 7z" />
    <glyph glyph-name="k.1" unicode="&#xe00a;" horiz-adv-x="767" 
d="M147 619q6 0 6 -7v-386l435 391q2 2 5 2q5 0 6.5 -4.5t-2.5 -7.5l-327 -295l355 -319q3 -3 2 -7t-4.5 -5t-6.5 2l-356 320l-107 -95v-220q0 -5 -3 -6.5t-6.5 0t-3.5 6.5v624q0 7 7 7z" />
    <glyph glyph-name="k.2" unicode="&#xe00b;" 
d="M146.5 619q6.5 0 6.5 -7v-299l436 305q2 1 4 1q7 0 7 -7q0 -3 -3 -5l-439 -307l439 -307q3 -2 3 -5q0 -7 -7 -7q-2 0 -4 1l-436 305v-299q0 -7 -6.5 -7t-6.5 7v624q0 7 6.5 7z" />
    <glyph glyph-name="l.1" unicode="&#xe00c;" 
d="M370 619q6 0 6 -7v-2l-220 -616h437q7 0 7 -6.5t-7 -6.5h-446q-7 0 -7 7v2l223 625q2 4 7 4z" />
    <glyph glyph-name="m.1" unicode="&#xe00d;" horiz-adv-x="1185" 
d="M593 619q7 0 7 -7v-603l434 607q2 3 5 3q7 0 7 -7v-624q0 -7 -7 -7t-7 7v603l-434 -607q-2 -3 -5 -3q-7 0 -7 7v604l-434 -608q-2 -3 -5 -3q-7 0 -7 7q0 2 1 4l446 624q2 3 6 3z" />
    <glyph glyph-name="m.2" unicode="&#xe00e;" horiz-adv-x="918" 
d="M146 619h1q3 0 5 -2l307 -351l307 351q2 2 5 2q7 0 7 -7v-624q0 -7 -6.5 -7t-6.5 7v607l-301 -344q-2 -2 -5 -2t-5 2l-301 344v-607q0 -7 -6.5 -7t-6.5 7v624q0 7 6 7z" />
    <glyph glyph-name="m.3" unicode="&#xe00f;" horiz-adv-x="1185" 
d="M593 619q-7 0 -7 -7v-603l-434 607q-2 3 -5 3q-7 0 -7 -7v-624q0 -7 6.5 -7t6.5 7v603l434 -607q2 -3 6 -3q7 0 7 7v604l434 -608q2 -3 5 -3q7 0 7 7q0 2 -2 4l-446 624q-2 3 -5 3z" />
    <glyph glyph-name="p.1" unicode="&#xe010;" 
d="M147 619h223q88 0 148 -33q82 -45 82 -140.5t-82 -140.5q-60 -34 -148 -34h-217v-283q1 -5 -2.5 -6.5t-7 0t-3.5 6.5v624q0 7 7 7zM153 606v-322h217q84 0 142 33q74 41 74 128.5t-74 128.5q-58 32 -142 32h-217z" />
    <glyph glyph-name="q.1" unicode="&#xe011;" horiz-adv-x="917" 
d="M451 619q136 0 231.5 -93.5t95.5 -225.5q0 -130 -93 -223t-227 -96v-127q0 -7 -6.5 -7t-6.5 7v127q-133 3 -219 95t-86 224q0 87 39.5 160t111 116t160.5 43zM451 606q-129 0 -213.5 -88.5t-84.5 -217.5q0 -127 82.5 -215t209.5 -90v171q0 7 6.5 7t6.5 -7v-171
q129 2 218 91t89 214q0 127 -91.5 216.5t-222.5 89.5z" />
    <glyph glyph-name="r.1" unicode="&#xe012;" 
d="M147 619h223q88 0 148 -33q82 -45 82 -140.5t-82 -140.5q-47 -27 -114 -32l195 -281q1 -2 1 -4q0 -7 -7 -7q-3 0 -5 3l-200 288q-9 -1 -18 -1h-216v-283q0 -7 -7 -7t-7 7v290q0 6 7 6h223q84 0 142 33q74 41 74 128.5t-74 128.5q-57 32 -142 32h-223q-7 0 -7 6.5t7 6.5z
" />
    <glyph glyph-name="r.2" unicode="&#xe013;" 
d="M147 619h223q88 0 148 -33q82 -45 82 -140.5t-82 -140.5q-47 -27 -114 -32l194 -281q2 -2 2 -4q0 -7 -7 -7q-4 0 -6 3l-199 288q-9 -1 -18 -1h-217v-283q0 -7 -6.5 -7t-6.5 7v289v0.5v1.5v333q0 7 7 7zM153 606v-322h217q84 0 142 33q74 41 74 128.5t-74 128.5
q-57 32 -142 32h-217z" />
    <glyph glyph-name="r.3" unicode="&#xe014;" horiz-adv-x="784" 
d="M147 619h223q88 0 148 -33q82 -45 82 -140q0 -90 -73 -136q-51 -32 -128 -37l244 -281q1 -2 1 -4q0 -7 -6 -7q-3 0 -5 2l-251 289q-2 2 -2 5v2q1 6 7 6q80 3 132 36q67 42 67 125q0 87 -74 128q-57 32 -142 32h-223q-7 0 -7 6.5t7 6.5z" />
    <glyph glyph-name="v.1" unicode="&#xe015;" horiz-adv-x="829" 
d="M676 612q0 4 3 6t6.5 0t3.5 -6v-624q0 -7 -7 -7q-3 0 -5 2l-535 625q-3 3 -1.5 6.5t5 4.5t6.5 -2l524 -611v606z" />
    <glyph glyph-name="v.2" unicode="&#xe016;" horiz-adv-x="829" 
d="M153 612q1 4 -2.5 6t-7 0t-3.5 -6v-624q0 -7 7 -7q3 0 5 2l535 625q3 3 1.5 6.5t-5 4.5t-6.5 -2l-524 -611v606z" />
    <glyph glyph-name="w.1" unicode="&#xe017;" horiz-adv-x="1185" 
d="M146.5 619q6.5 0 6.5 -7v-603l434 607q2 3 6 3q7 0 7 -7v-603l434 607q2 3 5 3q7 0 7 -7q0 -2 -2 -4l-446 -624q-2 -3 -5 -3q-7 0 -7 7v603l-434 -607q-2 -3 -5 -3q-7 0 -7 7v624q0 7 6.5 7z" />
    <glyph glyph-name="w.2" unicode="&#xe018;" horiz-adv-x="1364" 
d="M147 619q4 0 6 -4l261 -610l262 610q2 4 6.5 4t5.5 -4l262 -610l261 610q2 4 6 4q7 0 7 -7v-2l-268 -625q-2 -4 -6.5 -4t-5.5 4l-262 610l-261 -610q-2 -4 -6.5 -4t-6.5 4l-267 625q-1 1 -1 2q0 7 7 7z" />
    <glyph glyph-name="w.3" unicode="&#xe019;" horiz-adv-x="1185" 
d="M1039 619q-7 0 -7 -7v-603l-434 607q-2 3 -5 3q-7 0 -7 -7v-603l-434 607q-2 3 -5 3q-7 0 -7 -7q0 -2 1 -4l446 -624q2 -3 6 -3q7 0 7 7v603l434 -607q2 -3 5 -3q7 0 7 7v624q0 7 -7 7z" />
    <glyph glyph-name="s.1" unicode="&#xe01a;" horiz-adv-x="745" 
d="M153 619q-7 0 -7 -7q0 -2 1 -4l439 -614h-439q-7 0 -7 -6.5t7 -6.5h452q7 0 7 7q0 2 -2 4l-438 614l433 -1q7 0 7 7t-7 7h-446z" />
    </font>
</defs>
</svg>
